<?xml version="1.0" standalone="no"?>
<!DOCTYPE svg PUBLIC "-//W3C//DTD SVG 1.1//EN" "http://www.w3.org/Graphics/SVG/1.1/DTD/svg11.dtd" >
<svg xmlns="http://www.w3.org/2000/svg">
<metadata></metadata>
<defs>
<font id="letter_gothicregular" horiz-adv-x="1228" >
<font-face units-per-em="2048" ascent="1638" descent="-410" />
<missing-glyph horiz-adv-x="500" />
<glyph horiz-adv-x="2048" />
<glyph horiz-adv-x="2048" />
<glyph unicode="&#xd;" />
<glyph unicode=" " />
<glyph unicode="!" d="M471 109q0 57 39 98t98 41q57 0 98.5 -41t41.5 -98q0 -55 -41 -96.5t-99 -41.5q-57 0 -97 40t-40 98zM543 1477h143l-27 -1012h-81z" />
<glyph unicode="&#x22;" d="M356 1249v228h193v-228l-55 -278h-82zM682 1249v228h192v-228l-55 -278h-82z" />
<glyph unicode="#" d="M63 489l17 91h274l58 321h-275l17 90h274l119 660h90l-332 -1848h-92l125 686h-275zM582 -197l338 1848h90l-119 -660h278l-18 -90h-277l-57 -321h277l-17 -91h-276l-127 -686h-92z" />
<glyph unicode="$" d="M238 276l59 72q72 -66 132 -100.5t130 -34.5v532q-123 39 -204 122t-81 208q0 119 84 201t201 96v150h96v-150q80 -8 154 -40t141 -89l-57 -76q-57 53 -114.5 85t-123.5 38v-475q147 -51 227.5 -135t80.5 -229q0 -141 -83 -224.5t-225 -95.5v-194h-96v194q-88 0 -169 38 t-152 107zM371 1069q0 -80 55 -140t133 -91v448q-80 -12 -134 -72.5t-54 -144.5zM655 213q90 0 150.5 68.5t60.5 164.5q0 98 -57 169t-154 110v-512z" />
<glyph unicode="%" d="M176 1135q0 143 83 256.5t220 113.5q98 0 143.5 -55.5t45.5 -157.5q0 -168 -88 -272.5t-207 -104.5q-100 0 -148.5 58.5t-48.5 161.5zM195 0l753 1505h88l-755 -1505h-86zM266 1118q0 -66 23.5 -103.5t87.5 -37.5q96 0 148.5 111.5t52.5 220.5q0 59 -25 97t-82 38 q-100 0 -152.5 -106.5t-52.5 -219.5zM561 195q0 143 79 256.5t214 113.5q100 0 150.5 -56.5t50.5 -156.5q0 -164 -90.5 -269.5t-206.5 -105.5q-100 0 -148.5 58.5t-48.5 159.5zM651 178q0 -66 23.5 -102.5t87.5 -36.5q96 0 148.5 110.5t52.5 219.5q0 59 -25 97t-82 38 q-100 0 -152.5 -106.5t-52.5 -219.5z" />
<glyph unicode="&#x26;" d="M176 289q0 168 73 273.5t187 246.5q-88 145 -115.5 223t-27.5 152q0 133 64.5 227t195.5 94q98 0 163.5 -79.5t65.5 -188.5q0 -139 -61.5 -225t-163.5 -209l289 -471q18 63 26.5 139t8.5 256h102q0 -154 -17.5 -266.5t-58.5 -214.5l178 -209l-69 -70l-160 191 q-66 -90 -152 -138.5t-194 -48.5q-147 0 -240.5 85t-93.5 233zM279 295q0 -109 60 -175.5t169 -66.5q98 0 174 45t125 131l-320 488q-109 -137 -158.5 -224t-49.5 -198zM395 1206q0 -94 24.5 -160.5t84.5 -166.5q129 199 152.5 237.5t23.5 128.5q0 68 -37 123t-102 55 q-74 0 -110 -67.5t-36 -149.5z" />
<glyph unicode="'" d="M500 1260v227h192v-227l-55 -279h-82z" />
<glyph unicode="(" d="M385 688q0 250 95 476.5t284 357.5l45 -62q-170 -129 -249 -331.5t-79 -440.5t78 -438.5t250 -331.5l-45 -59q-188 131 -283.5 355t-95.5 474z" />
<glyph unicode=")" d="M420 -82q170 129 249 332t79 438q0 242 -77 442.5t-251 329.5l45 62q188 -129 283.5 -356.5t95.5 -477.5q0 -248 -94.5 -473t-284.5 -356z" />
<glyph unicode="*" d="M158 1102l24 86l387 -115v404h88v-404l390 115l26 -86l-401 -117l254 -321l-68 -54l-244 310l-237 -310l-70 54l248 321z" />
<glyph unicode="+" d="M70 692v90h499v502h90v-502h502v-90h-502v-499h-90v499h-499z" />
<glyph unicode="," d="M498 100q0 59 38.5 96t96.5 37q63 0 103 -49.5t40 -117.5q0 -104 -82 -183.5t-192 -109.5v86q55 16 98 45.5t62 75.5l-39 -7q-55 0 -90 35t-35 92z" />
<glyph unicode="-" d="M137 694v82h903l11 -82h-914z" />
<glyph unicode="." d="M477 109q0 57 39 98t98 41q57 0 98.5 -41t41.5 -98q0 -55 -41 -96.5t-99 -41.5q-57 0 -97 40t-40 98z" />
<glyph unicode="/" d="M264 -55l606 1587h95l-607 -1587h-94z" />
<glyph unicode="0" d="M209 737q0 160 8 268.5t46 225.5t127 195.5t224 78.5q129 0 217.5 -74.5t128 -188.5t50 -230.5t10.5 -274.5q0 -160 -8 -268.5t-46 -223t-128 -194.5t-224 -80q-129 0 -217 75t-122.5 174t-50 214t-15.5 303zM305 737q0 -154 6 -242.5t35 -191t95.5 -177.5t172.5 -75 q111 0 179.5 82t92 179.5t31 209t7.5 215.5q0 154 -6.5 244t-35 191.5t-95 177t-173.5 75.5q-111 0 -179 -81.5t-92 -181t-31 -210t-7 -215.5z" />
<glyph unicode="1" d="M276 1307v90l392 125v-1440h272v-82h-649v82h280v1317z" />
<glyph unicode="2" d="M225 0q0 248 64.5 378t258 298t276.5 266t83 225q0 117 -67.5 186.5t-186.5 69.5q-137 0 -217 -90t-80 -225h-96q0 174 107.5 285.5t287.5 111.5q160 0 254.5 -92t94.5 -252q0 -141 -80 -242.5t-274.5 -274.5t-261 -286.5t-66.5 -275.5h688v-82h-785z" />
<glyph unicode="3" d="M172 231l86 52q51 -109 131 -166.5t199 -57.5q156 0 250 88.5t94 241.5q0 180 -111.5 273.5t-285.5 93.5v82q137 0 233 88t96 225q0 113 -84 192.5t-198 79.5q-100 0 -179 -54t-129 -148l-81 45q61 111 165.5 175t231.5 64q154 0 262.5 -108.5t108.5 -259.5 q0 -115 -62.5 -199t-173.5 -133q143 -45 224 -148.5t81 -248.5q0 -188 -123 -309.5t-315 -121.5q-143 0 -239.5 61.5t-180.5 192.5z" />
<glyph unicode="4" d="M143 395v72l545 1038h152v-1028h211v-82h-211v-395h-97v395h-600zM248 477h495v961z" />
<glyph unicode="5" d="M236 199l71 55q47 -84 130 -139.5t175 -55.5q133 0 218 112t85 269q0 199 -92 292t-196 93q-88 0 -153.5 -44t-115.5 -124l-114 23l59 797h617v-82h-533l-49 -641q55 74 127 113.5t160 39.5q162 0 274.5 -121.5t112.5 -336.5q0 -195 -110.5 -333.5t-301.5 -138.5 q-113 0 -204 59.5t-160 162.5z" />
<glyph unicode="6" d="M215 623q0 426 161 654t380 228q127 0 243 -75l-47 -82q-47 33 -98 54t-102 21q-213 0 -327 -243.5t-114 -485.5q63 111 147.5 169.5t203.5 58.5q172 0 268 -135.5t96 -315.5q0 -205 -108.5 -349.5t-309.5 -144.5q-170 0 -281.5 149.5t-111.5 496.5zM324 432 q0 -145 73.5 -259t212.5 -114q162 0 240 121t78 291q0 154 -70 261.5t-215 107.5q-113 0 -216 -111t-103 -297z" />
<glyph unicode="7" d="M211 1395v82h774l-567 -1477h-107l551 1395h-651z" />
<glyph unicode="8" d="M164 389q0 141 62.5 237.5t195.5 143.5q-98 43 -154.5 139.5t-56.5 208.5q0 176 111.5 281.5t291.5 105.5t289 -104.5t109 -282.5q0 -115 -53.5 -210t-151.5 -138q260 -92 260 -381q0 -193 -118 -302.5t-335 -109.5q-221 0 -335.5 111t-114.5 301zM260 389 q0 -156 97.5 -243t256.5 -87q160 0 257.5 86t97.5 244q0 156 -97.5 247t-257.5 91q-156 0 -255 -91t-99 -247zM307 1104q0 -133 85 -214t220 -81q141 0 222 83t81 226q0 141 -81.5 223t-221.5 82q-145 0 -225 -84t-80 -235z" />
<glyph unicode="9" d="M203 1001q0 209 108.5 356.5t309.5 147.5q113 0 191.5 -59.5t123.5 -156.5t61.5 -205.5t16.5 -231.5q0 -154 -21.5 -285t-83 -267t-175 -229.5t-261.5 -93.5q-135 0 -246 70l47 82q43 -31 99.5 -50.5t103.5 -19.5q211 0 326 240t115 481q-66 -109 -150 -168t-201 -59 q-174 0 -269 134t-95 314zM299 1004q0 -152 70.5 -260.5t216.5 -108.5q66 0 126 36t106 95t66.5 128.5t20.5 149.5q0 150 -73.5 264.5t-215.5 114.5q-162 0 -239.5 -122.5t-77.5 -296.5z" />
<glyph unicode=":" d="M475 109q0 57 39 98t98 41q57 0 98.5 -41t41.5 -98q0 -55 -41 -96.5t-99 -41.5q-57 0 -97 40t-40 98zM475 827q0 57 39 98.5t98 41.5q57 0 98.5 -41.5t41.5 -98.5q0 -55 -41 -96t-99 -41q-57 0 -97 40t-40 97z" />
<glyph unicode=";" d="M498 100q0 59 38.5 96t96.5 37q63 0 103 -49.5t40 -117.5q0 -104 -82 -183.5t-192 -109.5v86q55 16 98 45.5t62 75.5l-39 -7q-55 0 -90 35t-35 92zM498 827q0 57 38.5 98.5t98.5 41.5q57 0 98 -41.5t41 -98.5q0 -55 -41 -96t-98 -41t-97 40t-40 97z" />
<glyph unicode="&#x3c;" d="M201 737l776 740l53 -66l-698 -674l698 -671l-53 -66z" />
<glyph unicode="=" d="M70 555v90h1091v-90h-1091zM70 829v91h1091v-91h-1091z" />
<glyph unicode="&#x3e;" d="M201 66l696 671l-696 674l51 66l778 -740l-778 -737z" />
<glyph unicode="?" d="M258 1192q0 143 97.5 228t246.5 85q162 0 254 -94t92 -258q0 -111 -40 -174.5t-133 -137t-108.5 -109.5t-15.5 -148v-125h-96v200q0 35 3 60.5t15.5 53.5t57.5 70t102.5 87t88 98t30.5 131q0 119 -66.5 191.5t-185.5 72.5q-104 0 -172 -63.5t-68 -167.5h-102zM481 109 q0 57 39 98t98 41q57 0 98.5 -41t41.5 -98q0 -55 -41 -96.5t-99 -41.5q-57 0 -97 40t-40 98z" />
<glyph unicode="@" d="M10 610q0 360 180.5 627.5t466.5 267.5q231 0 398.5 -170.5t167.5 -449.5q0 -180 -79 -339t-239 -159q-61 0 -112.5 32t-67.5 89q-39 -55 -94.5 -91t-120.5 -36q-78 0 -125 53t-47 133q0 88 34 191.5t87 170t145 92.5t201 26h65l-53 -322q-12 -72 -12 -119 q0 -80 28.5 -108.5t73.5 -28.5q111 0 165 133t54 266q0 274 -145 414.5t-313 140.5q-270 0 -416 -257t-146 -552q0 -289 142.5 -425t331.5 -136q123 0 233.5 43t243.5 129l35 -92q-119 -74 -254.5 -118t-268.5 -44q-223 0 -391 161t-168 478zM434 580q0 -45 22.5 -81 t63.5 -36q68 0 127.5 81t95.5 281l21 138q-51 0 -105.5 -17.5t-99.5 -52.5t-85 -136.5t-40 -176.5z" />
<glyph unicode="A" d="M125 0l491 1536l336 -1049l160 -487h-111l-133 449h-501l-136 -449h-106zM387 530h461l-232 744z" />
<glyph unicode="B" d="M244 0v1477h360q164 0 264.5 -96.5t100.5 -264.5q0 -119 -61.5 -203t-174.5 -133q145 -41 224 -141t79 -250q0 -166 -99 -277.5t-271 -111.5h-422zM340 82h309q106 0 197.5 78t91.5 225q0 139 -93 240.5t-251 101.5h-254v-645zM340 809h149q188 0 285.5 83t97.5 230 q0 129 -69.5 201t-243.5 72h-219v-586z" />
<glyph unicode="C" d="M197 717q0 201 33.5 370.5t139 293.5t298.5 124q135 0 231 -86t109 -221h-97q0 96 -71.5 160.5t-171.5 64.5q-158 0 -239 -111.5t-105.5 -265t-24.5 -319.5q0 -168 23.5 -313.5t101.5 -253t231 -107.5q117 0 197 76t80 190h98q-16 -164 -116.5 -256t-266.5 -92 q-201 0 -325.5 173t-124.5 573z" />
<glyph unicode="D" d="M252 0v1477h369q123 0 211 -57.5t134 -142.5t72.5 -218.5t26.5 -321.5q0 -244 -39 -378t-88 -204.5t-132 -112.5t-214 -42h-340zM348 82h182q143 0 231.5 37t131.5 136t55.5 223t12.5 259q0 166 -11.5 281t-60.5 212t-134 131t-225 34h-182v-1313z" />
<glyph unicode="E" d="M309 0v1477h723v-82h-626v-596h448v-82h-448v-635h641v-82h-738z" />
<glyph unicode="F" d="M328 0v1477h757v-82h-661v-584h496v-82h-496v-729h-96z" />
<glyph unicode="G" d="M205 690q0 459 115.5 637t326.5 178q162 0 252 -100t105 -266h-103q0 117 -64.5 200.5t-179.5 83.5q-223 0 -286.5 -203.5t-63.5 -494.5q0 -276 59.5 -474t268.5 -198q137 0 237.5 107.5t100.5 349.5v119h-355v82h453v-740h-98v234q-37 -109 -132.5 -171.5t-213.5 -62.5 q-195 0 -308.5 161t-113.5 558z" />
<glyph unicode="H" d="M225 0v1477h97v-670h583v670h96v-1477h-96v725h-583v-725h-97z" />
<glyph unicode="I" d="M360 0v82h205v1313h-205v82h506v-82h-204v-1313h204v-82h-506z" />
<glyph unicode="J" d="M174 444v158h96v-211q0 -176 64.5 -257t206.5 -81q152 0 227.5 90t75.5 248v1004h-279v82h375v-1010q0 -264 -95 -380t-302 -116q-184 0 -276.5 111t-92.5 362z" />
<glyph unicode="K" d="M287 0v1477h96v-678q113 0 201 99t184 240.5t174 344.5l102 -53l-178 -297q-80 -133 -159.5 -226.5t-188.5 -156.5l633 -750h-135l-584 717h-49v-717h-96z" />
<glyph unicode="L" d="M346 0v1477h96v-1395h650v-82h-746z" />
<glyph unicode="M" d="M172 0v1477h107l335 -813l336 813h109v-1477h-98v1282l-347 -821l-342 821l-4 -4v-1278h-96z" />
<glyph unicode="N" d="M256 0v1477h139l502 -1266l4 4v1262h96v-1491h-100l-541 1357l-4 -4v-1339h-96z" />
<glyph unicode="O" d="M176 737q0 213 30 376t127 277.5t281 114.5q285 0 360 -224.5t75 -543.5q0 -434 -116 -600t-319 -166t-320.5 164t-117.5 602zM279 737q0 -383 89 -533.5t246 -150.5q160 0 245 153.5t85 530.5q0 383 -86 534.5t-244 151.5q-168 0 -251.5 -158.5t-83.5 -527.5z" />
<glyph unicode="P" d="M297 0v1477h332q213 0 310 -126.5t97 -314.5q0 -213 -121.5 -324.5t-334.5 -111.5h-187v-600h-96zM393 682h172q188 0 277.5 93t89.5 259q0 190 -85 275.5t-212 85.5h-242v-713z" />
<glyph unicode="Q" d="M176 737q0 408 113.5 588t324.5 180q205 0 323 -174t118 -594q0 -219 -30 -379.5t-134 -269.5l168 -215h-123l-113 160q-92 -61 -209 -62q-209 0 -323.5 178.5t-114.5 587.5zM279 737q0 -281 58 -482.5t277 -201.5q223 0 279.5 213t56.5 471q0 383 -90 534.5t-246 151.5 q-217 0 -276 -199.5t-59 -486.5z" />
<glyph unicode="R" d="M295 0v1477h350q182 0 287.5 -112t105.5 -294q0 -143 -76.5 -256t-209.5 -156l399 -659h-121l-368 637h-271v-637h-96zM391 719h240q117 0 210 90t93 270q0 139 -70.5 227.5t-218.5 88.5h-254v-676z" />
<glyph unicode="S" d="M203 188l73 60q59 -86 149.5 -140.5t192.5 -54.5q131 0 223.5 86t92.5 217q0 111 -47 174.5t-242 180.5l-137 82q-129 78 -197.5 158.5t-68.5 203.5q0 162 107.5 256t273.5 94q102 0 196 -44t178 -122l-57 -71q-88 76 -160.5 115.5t-163.5 39.5q-117 0 -194.5 -71.5 t-77.5 -186.5q0 -88 49 -155.5t182 -147.5l121 -74q190 -111 266 -195.5t76 -211.5q0 -188 -114.5 -299t-305.5 -111q-127 0 -230 55.5t-185 161.5z" />
<glyph unicode="T" d="M141 1395v82h949v-82h-428v-1395h-97v1395h-424z" />
<glyph unicode="U" d="M225 356v1121h97v-1049q0 -199 79.5 -287t212.5 -88t211 84t78 258v1082h96v-1098q0 -201 -119.5 -304.5t-265.5 -103.5q-156 0 -272.5 113t-116.5 272z" />
<glyph unicode="V" d="M203 1477h112l297 -1409l291 1409h111l-322 -1491h-155z" />
<glyph unicode="W" d="M150 1477h112l86 -1319l258 819l256 -819l90 1319h115l-117 -1491h-129l-215 741l-213 -741h-129z" />
<glyph unicode="X" d="M213 0l356 745l-346 732h115l276 -639l277 639h115l-342 -734l352 -743h-115l-289 653l-284 -653h-115z" />
<glyph unicode="Y" d="M158 1477h108l309 -740l312 740h108l-370 -852v-625h-97v625z" />
<glyph unicode="Z" d="M231 0v82l641 1313h-618v82h727v-82l-635 -1313h686v-82h-801z" />
<glyph unicode="[" horiz-adv-x="1232" d="M369 -180v1702h549v-82h-453v-1538h453v-82h-549z" />
<glyph unicode="\" horiz-adv-x="1232" d="M264 1532h94l607 -1587h-95z" />
<glyph unicode="]" horiz-adv-x="1232" d="M315 -98h453v1538h-453v82h549v-1702h-549v82z" />
<glyph unicode="^" horiz-adv-x="1232" d="M225 731l336 664h107l329 -664h-102l-281 565l-286 -565h-103z" />
<glyph unicode="_" horiz-adv-x="1232" d="M0 -147h1231v-74h-1231v74z" />
<glyph unicode="`" horiz-adv-x="1232" d="M369 1419l75 86l326 -266l-45 -61z" />
<glyph unicode="a" d="M227 322q0 164 87 274.5t239 110.5q66 0 130.5 -19.5t133.5 -52.5q0 215 -45 303t-176 88q-63 0 -121.5 -18.5t-138.5 -55.5l-23 90q82 33 148.5 49.5t140.5 16.5q147 0 229 -100.5t82 -282.5l-12 -442q0 -78 12 -139.5t41 -153.5l-88 -13q-31 92 -41 185 q-66 -92 -131 -138.5t-166 -46.5q-143 0 -222 98.5t-79 246.5zM324 313q0 -102 53 -178t151 -76q92 0 157 58t126 162v280q-53 27 -114.5 46.5t-121.5 19.5q-127 0 -189 -89.5t-62 -222.5z" />
<glyph unicode="b" d="M209 -10q27 88 38 184t11 207v1141h96v-508q113 94 267 94q150 0 289 -134t139 -425q0 -289 -130.5 -430.5t-291.5 -141.5q-94 0 -170 47.5t-119 131.5l-39 -179zM354 276q47 -100 108.5 -158.5t162.5 -58.5q119 0 222 116t103 368q0 262 -112.5 372.5t-241.5 110.5 q-66 0 -124 -28.5t-118 -79.5v-642z" />
<glyph unicode="c" d="M225 530q0 301 132 439.5t313 138.5q119 0 209.5 -56t164.5 -165l-88 -58q-47 90 -118.5 143.5t-167.5 53.5q-131 0 -239.5 -109.5t-108.5 -369.5q0 -256 106.5 -372t247.5 -116q82 0 156.5 47.5t138.5 122.5l67 -69q-84 -90 -168 -136.5t-192 -46.5q-176 0 -314.5 129.5 t-138.5 423.5z" />
<glyph unicode="d" d="M178 549q0 291 137.5 425t288.5 134q154 0 266 -94v508h97v-1141q0 -123 9 -207t40 -184l-90 -13l-39 179q-90 -178 -289 -179q-162 0 -291 141.5t-129 430.5zM274 543q0 -250 103.5 -367t222.5 -117q98 0 164.5 59.5t105.5 157.5v642q-53 47 -116.5 77.5t-124.5 30.5 q-129 0 -242 -109.5t-113 -373.5z" />
<glyph unicode="e" d="M199 537q0 233 108.5 402t331.5 169q164 0 281.5 -136.5t117.5 -445.5h-743q0 -260 96 -363.5t246 -103.5q90 0 172 27t170 80l41 -90q-106 -47 -197.5 -73t-189.5 -26q-221 0 -327.5 163t-106.5 397zM295 608h645q0 160 -82 289t-231 129q-150 0 -241 -130t-91 -288z " />
<glyph unicode="f" d="M219 928v82h279v125q0 193 91 281.5t222 88.5q61 0 128 -18.5t140 -48.5v-103q-68 31 -134 59.5t-124 28.5q-209 0 -227 -221v-192h358v-82h-358v-928h-96v928h-279z" />
<glyph unicode="g" d="M205 580q0 215 96 371.5t301 156.5q84 0 148.5 -30.5t146.5 -96.5l29 127h100q-29 -109 -39 -229.5t-10 -270.5v-73v-451q0 -217 -120 -323.5t-267 -106.5q-80 0 -169 42t-147 103l68 60q47 -57 117.5 -90t148.5 -33q106 0 191.5 87t85.5 273v133q-57 -59 -140 -96 t-165 -37q-182 0 -278.5 145.5t-96.5 338.5zM301 598q0 -225 95.5 -322.5t191.5 -97.5q82 0 166 47t127 119v522q-49 70 -125 115t-158 45q-152 0 -224.5 -131t-72.5 -297z" />
<glyph unicode="h" d="M266 0v1522h96v-674q57 113 152.5 186.5t212.5 73.5q94 0 176 -79t82 -241v-788h-96v680q0 143 -36 244.5t-142 101.5q-135 0 -242 -146.5t-107 -334.5v-545h-96z" />
<glyph unicode="i" d="M276 1001v84h412v-1085h-96v1001h-316zM530 1399q0 45 31 75.5t76 30.5q43 0 75.5 -30.5t32.5 -75.5t-30.5 -76t-77.5 -31q-45 0 -76 31t-31 76z" />
<glyph unicode="j" d="M176 57h96q0 -152 48.5 -236.5t173.5 -84.5q102 0 166.5 68.5t64.5 166.5v1030h-326v84h422v-1083q0 -147 -92 -247.5t-233 -100.5q-168 0 -244 114.5t-76 288.5zM653 1399q0 45 31 75.5t76 30.5q43 0 75.5 -30.5t32.5 -75.5t-30.5 -76t-77.5 -31q-45 0 -76 31t-31 76z " />
<glyph unicode="k" d="M311 0v1522h97v-973q141 135 254.5 263t211.5 273h125q-248 -299 -271 -325.5t-161 -169.5l527 -590h-131l-453 535l-102 -101v-434h-97z" />
<glyph unicode="l" d="M258 1440v82h416v-1522h-96v1440h-320z" />
<glyph unicode="m" d="M119 1108h98l27 -143q47 70 110.5 106.5t143.5 36.5q61 0 102 -35t66 -98q47 61 101 97t122 36q102 0 158.5 -62.5t56.5 -166.5v-879h-98v874q0 82 -34 118t-95 36t-112.5 -40t-86.5 -101v-887h-96v831q0 84 -21.5 139.5t-93.5 55.5q-66 0 -125 -47t-88 -113v-866h-96 v756q0 106 -9.5 187t-29.5 165z" />
<glyph unicode="n" d="M205 1098h90l39 -314q35 127 147.5 225.5t241.5 98.5q133 0 192.5 -97.5t59.5 -238.5v-772h-96v727q0 137 -29 218t-139 81q-139 0 -253 -145.5t-114 -434.5v-446h-96v543q0 211 -11.5 329.5t-31.5 225.5z" />
<glyph unicode="o" d="M215 543q0 291 122 428t292 137q166 0 292 -132t126 -433q0 -299 -126 -432.5t-292 -133.5q-164 0 -289 132.5t-125 433.5zM311 543q0 -201 70 -342.5t248 -141.5q180 0 249.5 141.5t69.5 342.5q0 199 -69.5 341t-249.5 142q-178 0 -248 -141.5t-70 -341.5z" />
<glyph unicode="p" d="M209 1096l90 12l39 -180q90 180 289 180q162 0 292 -141t130 -432q0 -289 -139.5 -423.5t-288.5 -134.5q-152 0 -267 93v-504h-96v1139q0 121 -9 204.5t-40 186.5zM354 166q57 -49 115.5 -78t126.5 -29q127 0 240.5 110t113.5 372q0 252 -103.5 368.5t-221.5 116.5 q-98 0 -162 -59.5t-109 -159.5v-641z" />
<glyph unicode="q" d="M178 535q0 291 129 432t291 141q199 0 289 -180l39 180l90 -12q-25 -84 -36 -188.5t-11 -202.5v-1139h-97v504q-117 -92 -268 -93q-150 0 -288 133.5t-138 424.5zM274 541q0 -262 113 -372t242 -110q63 0 124.5 29t118.5 78v641q-49 104 -110.5 161.5t-161.5 57.5 q-121 0 -223.5 -115.5t-102.5 -369.5z" />
<glyph unicode="r" d="M307 1098h92l37 -310q68 139 156 229.5t215 90.5q123 0 176 -97.5t53 -232.5h-98q0 106 -26.5 177t-112.5 71q-111 0 -234 -155.5t-123 -430.5v-440h-96v750z" />
<glyph unicode="s" d="M219 152l53 77q74 -74 169.5 -122t189.5 -48q96 0 160.5 51.5t64.5 147.5q0 106 -63.5 157.5t-205 105.5t-226.5 120t-85 195q0 113 96.5 192.5t221.5 79.5q88 0 168 -29.5t158 -87.5l-41 -80q-74 53 -144.5 84t-146.5 31q-84 0 -149.5 -57.5t-65.5 -141.5t65.5 -133 t202.5 -101t224 -121t87 -208q0 -129 -97 -208t-228 -79q-96 0 -213 51.5t-195 123.5z" />
<glyph unicode="t" d="M186 1001v84h244v349h96v-349h398v-84h-398v-739q0 -90 39 -146.5t133 -56.5q86 0 149.5 53.5t102.5 139.5l94 -23q-57 -115 -145 -183.5t-205 -68.5q-121 0 -192.5 76t-71.5 266v682h-244z" />
<glyph unicode="u" d="M256 319v766h96v-720q0 -305 168 -306q137 0 252 153t115 433v440h96v-536q0 -217 11 -328.5t34 -220.5h-92l-41 307q-35 -127 -148.5 -228.5t-238.5 -101.5q-133 0 -192.5 99.5t-59.5 242.5z" />
<glyph unicode="v" d="M213 1085h102l295 -954l297 954h103l-342 -1099h-113z" />
<glyph unicode="w" d="M102 1085h107l149 -938l195 658h104l191 -658l153 938h107l-195 -1099h-104l-205 700l-205 -700h-104z" />
<glyph unicode="x" d="M141 0l420 582l-338 503h113l278 -428l273 428h106l-327 -499l424 -586h-132l-346 516l-342 -516h-129z" />
<glyph unicode="y" d="M53 -139l82 43q25 -70 66 -119t102 -49q70 0 111 53t84 150l82 186l-353 960h107l293 -833l311 833h113l-408 -1032q-70 -180 -142.5 -289.5t-197.5 -109.5q-88 0 -153.5 58.5t-96.5 148.5z" />
<glyph unicode="z" d="M209 0v82l672 919h-580v84h694v-84l-665 -919h690v-82h-811z" />
<glyph unicode="{" horiz-adv-x="1232" d="M383 666q104 29 134 79t30 162v332q0 160 65.5 221.5t229.5 61.5l4 -4q-117 -18 -160 -79t-43 -184v-331q0 -119 -30.5 -174.5t-141.5 -79.5q106 -29 139 -89.5t33 -177.5v-319q0 -119 44 -183.5t159 -76.5l-4 -4q-172 0 -233.5 63.5t-61.5 233.5v309q0 115 -29 164 t-135 76z" />
<glyph unicode="|" horiz-adv-x="1232" d="M569 -590v2214h90v-2214h-90z" />
<glyph unicode="}" horiz-adv-x="1232" d="M385 -176q117 18 160 78.5t43 183.5v330q0 119 30.5 174t141.5 80q-106 29 -139 89t-33 177v321q0 119 -44 183.5t-159 77.5l4 4q172 0 233.5 -63.5t61.5 -233.5v-312q0 -115 28.5 -164t135.5 -75q-104 -29 -134 -79t-30 -163v-330q0 -160 -65.5 -221t-229.5 -61z" />
<glyph unicode="~" horiz-adv-x="1232" d="M61 618q61 109 131 178.5t166 69.5q90 0 270.5 -76.5t229.5 -76.5q74 0 141.5 56t104.5 134l65 -47q-51 -96 -133 -164.5t-176 -68.5q-61 0 -251.5 76.5t-239.5 76.5q-84 0 -131.5 -49t-112.5 -156z" />
<glyph unicode="&#xa1;" horiz-adv-x="1232" d="M471 1366q0 57 39 98t98 41q57 0 98.5 -41t41.5 -98q0 -55 -41 -96t-99 -41q-57 0 -97 40t-40 97zM543 0l26 1010h82l35 -1010h-143z" />
<glyph unicode="&#xa2;" horiz-adv-x="1232" d="M225 752q0 231 90.5 385.5t298.5 189.5v195h97v-195q100 0 183 -58.5t155 -158.5l-95 -61q-39 82 -99 133t-144 63v-962q74 10 135 53t125 115l67 -70q-72 -72 -155.5 -120t-171.5 -60v-283h-97v283q-199 31 -294 182.5t-95 368.5zM322 768q0 -184 65 -316t227 -167v958 q-160 -31 -226 -161t-66 -314z" />
<glyph unicode="&#xa3;" horiz-adv-x="1232" d="M170 791v81h213q-29 90 -42 154t-13 133q0 150 104.5 248t253.5 98q121 0 220.5 -58t150.5 -167l-94 -31q-41 82 -110 128t-157 46q-115 0 -193.5 -74.5t-78.5 -203.5q0 -57 12.5 -110.5t42.5 -162.5h410v-81h-385q35 -137 46 -203t11 -109q0 -100 -39 -186t-116 -201 l4 -4q74 35 113.5 45t82.5 10q92 0 143.5 -22.5t86 -35.5t59.5 -13q39 0 71.5 18.5t84.5 61.5l53 -64q-39 -43 -91 -70.5t-108 -27.5q-41 0 -62.5 6t-88.5 29q-45 18 -78 27t-78 9q-63 0 -122.5 -22.5t-125.5 -61.5l-57 78q104 178 138 260t34 150q0 72 -15.5 150.5 t-43.5 175.5h-236z" />
<glyph unicode="&#xa4;" horiz-adv-x="1232" d="M23 219l223 219q-102 139 -103 299q0 158 103 301l-223 219l67 66l221 -219q131 106 303 106t304 -106l223 219l67 -66l-225 -219q104 -141 104 -301t-104 -299l225 -219l-67 -65l-223 219q-131 -106 -304 -107q-172 0 -303 107l-221 -219zM223 737q0 -166 113 -278.5 t278 -112.5q166 0 279 112.5t113 278.5t-113 281t-279 115t-278.5 -115t-112.5 -281z" />
<glyph unicode="&#xa5;" horiz-adv-x="1232" d="M158 1477h114l306 -740l303 740h114l-370 -852v-64h247v-82h-247v-479h-97v479h-245v82h245v64z" />
<glyph unicode="&#xa6;" d="M569 74v475h99v-475h-99zM569 778v475h99v-475h-99z" />
<glyph unicode="&#xa7;" horiz-adv-x="1232" d="M231 827q0 78 42 135.5t116 96.5q-76 76 -76 178q0 127 81 197.5t210 70.5q145 0 233.5 -82t88.5 -237h-97q0 115 -52 176t-165 61q-86 0 -144 -43t-58 -127q0 -80 34.5 -118.5t137.5 -118.5l123 -94q156 -121 223 -187t67 -162q0 -78 -42 -135t-115 -94q78 -78 77 -178 q0 -125 -81.5 -196.5t-208.5 -71.5q-150 0 -236 81.5t-86 237.5h94q0 -115 53.5 -176t165.5 -61q86 0 144.5 43t58.5 127q0 76 -40 119.5t-134 115.5l-121 94q-154 117 -223.5 183.5t-69.5 164.5zM328 842q0 -43 20.5 -79t57.5 -71l380 -299q51 18 82 63.5t31 102.5 q0 45 -19.5 79t-58.5 71l-379 299q-53 -18 -83.5 -63.5t-30.5 -102.5z" />
<glyph unicode="&#xa8;" d="M352 1505q0 37 22.5 63.5t59.5 26.5t63.5 -22.5t26.5 -59.5t-22.5 -63.5t-59.5 -26.5t-63.5 22.5t-26.5 59.5zM647 1505q0 37 22.5 63.5t59.5 26.5t63.5 -22.5t26.5 -59.5t-22.5 -63.5t-59.5 -26.5t-63.5 22.5t-26.5 59.5z" />
<glyph unicode="&#xa9;" horiz-adv-x="1232" d="M0 739q0 319 178 542.5t432 223.5q252 0 430.5 -223.5t178.5 -542.5t-177.5 -543.5t-431.5 -224.5t-432 223.5t-178 544.5zM82 739q0 -283 153.5 -484.5t374.5 -201.5q219 0 373 201.5t154 484.5q0 279 -154 481.5t-373 202.5t-373.5 -201.5t-154.5 -482.5zM299 745 q0 193 91 318t243 125q113 0 188.5 -77t91.5 -214h-82q-12 90 -67 149.5t-129 59.5q-117 0 -185.5 -104.5t-68.5 -253.5q0 -141 71.5 -253t184.5 -112q74 0 129 61.5t65 155.5h82q-12 -135 -90 -217t-186 -82q-147 0 -242.5 128t-95.5 316z" />
<glyph unicode="&#xaa;" d="M360 737v58h484v-58h-484zM420 1090q0 82 43 137t119 55q33 0 62.5 -9t70.5 -28q0 109 -22.5 153t-88.5 44q-35 0 -54.5 -6t-76.5 -31l-10 45q33 12 70.5 22.5t72.5 10.5q74 0 115 -51.5t41 -141.5l-6 -221q0 -33 7 -69.5t19 -77.5l-43 -7q-10 29 -15 50.5t-5 44.5 q-33 -47 -65.5 -71t-84.5 -24q-70 0 -109.5 50.5t-39.5 124.5zM467 1085q0 -51 26.5 -89t75.5 -38q47 0 79 28t63 81v141q-31 16 -58.5 24.5t-58.5 8.5q-63 0 -95 -45t-32 -111z" />
<glyph unicode="&#xab;" horiz-adv-x="1232" d="M68 729l530 512l59 -61l-469 -451l469 -448l-59 -66zM573 729l533 512l59 -61l-471 -451l471 -448l-59 -66z" />
<glyph unicode="&#xac;" horiz-adv-x="5685" d="M410 291q0 102 51 259t98 220l131 180q20 25 29.5 37t13.5 25q-92 0 -138 42t-60 138q31 -6 61 -6q111 0 222.5 63.5t209.5 161.5q6 14 12 14q10 0 17.5 -26.5t7.5 -44.5q0 -160 -102 -240q-84 -55 -168 -108q-18 -35 -113.5 -167t-95.5 -233q0 -63 30.5 -158.5 t73.5 -95.5q68 0 230.5 113t293.5 205q57 135 102.5 245.5t92.5 168t68.5 77t58.5 19.5q23 0 40 -15.5t17 -40.5q0 -80 -65.5 -150.5t-157.5 -129.5q-14 -27 -40.5 -134.5t-26.5 -144.5q0 -47 64.5 -140t143.5 -198q53 254 289 537t533 487.5t549.5 257t440 79t398.5 26.5 q156 0 321 -14.5t403.5 -53.5t427 -275.5t188.5 -758.5q0 -293 -166 -429t-463 -136q-84 0 -187.5 27.5t-103.5 91.5q0 41 22.5 61t59.5 20t74 -20.5t55 -54.5q12 -31 45 -50.5t78 -29.5q231 0 351 124t120 376q6 59 6 126q0 301 -144.5 550t-469 290t-475 58.5t-277.5 17.5 q-113 0 -274.5 -25.5t-370.5 -59.5t-536.5 -257t-571.5 -518t-270 -527q43 -61 68.5 -133.5t25.5 -140.5q0 -47 -7.5 -76.5t-37.5 -29.5q-57 0 -90 98t-33 176v25q-125 102 -210 185t-92 141.5t-9 87t-2 65.5q0 39 6 69q-90 -78 -215 -171t-253 -163.5t-210 -70.5 q-37 0 -65.5 22.5t-28.5 59.5zM1761 102q16 53 99 54q25 0 63.5 -10.5t68 -44t19.5 -70.5q-16 -55 -100 -56q-25 0 -63 9.5t-67.5 44t-19.5 73.5zM2017 250q0 104 75 187t183 112l6 -19q-80 -31 -126 -70.5t-52 -117.5q0 -158 166 -214t373 -56q299 0 443.5 108.5t177 155.5 t32.5 102q0 86 -68.5 109.5t-170.5 23.5q-59 0 -166 -9t-117 -9q-152 0 -258.5 67.5t-106.5 215.5q0 211 187.5 331.5t413.5 120.5q78 0 116.5 -8t73.5 -49q16 8 31 8q29 0 51 -50t43 -69q10 -2 10 -16q-8 -25 -60 -82t-59 -68q-6 -23 -20 -22q-14 0 -42 25.5t-46.5 29.5 t-38 11.5t-19.5 27.5q0 27 37 74t37 80q0 41 -38 57t-87 16q-166 0 -318.5 -85t-152.5 -240q0 -88 73 -119t173 -31q55 0 142 5t100 5q176 0 283.5 -34.5t107.5 -169.5q0 -121 -80 -231.5t-280.5 -263t-559.5 -152.5q-186 0 -327.5 72.5t-141.5 240.5zM3211 111q14 51 88 51 q27 0 66 -11.5t67.5 -41t18.5 -66.5q-16 -53 -94 -53q-23 0 -62 10t-66.5 42t-17.5 69zM3590 166q0 61 32 104t75 84q61 -76 96 -106.5t96 -30.5q166 0 291 266.5t125 454.5q0 111 -60.5 144.5t-173.5 33.5q-178 0 -194.5 -112.5t-38.5 -124.5l-27 69q2 14 2 27.5v19.5 q0 14 -2 50t-2 57q0 100 50.5 157.5t199.5 57.5q178 0 303 -27t125 -131q0 -125 -119.5 -404.5t-211 -439t-161 -245.5t-163.5 -86q-80 0 -161 52t-81 130z" />
<glyph unicode="&#xad;" d="M137 694v82h903l11 -82h-914z" />
<glyph unicode="&#xae;" horiz-adv-x="1232" d="M0 739q0 317 180 541.5t436 224.5q254 0 434.5 -224.5t180.5 -541.5q0 -319 -179.5 -543.5t-435.5 -224.5t-436 223.5t-180 544.5zM82 739q0 -285 154.5 -485.5t379.5 -200.5q221 0 377 201.5t156 484.5t-154.5 483.5t-378.5 200.5q-223 0 -378.5 -200.5t-155.5 -483.5z M389 309v858h297q123 0 182.5 -54t59.5 -175q0 -119 -58.5 -176t-154.5 -57l207 -396h-101l-194 396h-156v-396h-82zM471 786h207q74 0 121 33t47 123q0 92 -46 117.5t-132 25.5h-197v-299z" />
<glyph unicode="&#xb0;" d="M473 1241q0 63 43 108.5t109 45.5q61 0 106 -45.5t45 -108.5q0 -61 -44 -105t-107 -44q-61 0 -106.5 43t-45.5 106zM532 1233q0 -37 27 -63.5t66 -26.5t65.5 26.5t26.5 63.5q0 39 -26.5 65.5t-65.5 26.5t-66 -26.5t-27 -65.5z" />
<glyph unicode="&#xb1;" d="M70 692v90h499v502h90v-502h502v-90h-502v-491h482v-82h-996v82h424v491h-499z" />
<glyph unicode="&#xb2;" d="M373 834q0 127 30.5 189t139 156.5t140.5 140.5t32 97q0 129 -127 129q-70 0 -110 -44t-40 -113h-47q0 86 54.5 142t142.5 56q80 0 127 -45t47 -127q0 -72 -40 -122t-136.5 -136t-130 -145.5t-33.5 -137.5h344v-40h-393z" />
<glyph unicode="&#xb3;" d="M326 975l43 24q27 -53 66.5 -81.5t99.5 -28.5q76 0 124 44t48 120q0 90 -55.5 137t-143.5 47v41q68 0 116 44t48 112q0 57 -42 97t-100 40q-49 0 -89 -27.5t-64 -75.5l-41 23q31 57 83 89t116 32q80 0 133 -53.5t53 -131.5q0 -57 -33 -100t-86 -65q74 -25 114 -75 t40 -124q0 -94 -61.5 -155.5t-157.5 -61.5q-70 0 -120 32.5t-91 96.5z" />
<glyph unicode="&#xb4;" horiz-adv-x="1232" d="M414 1239l325 266l76 -86l-356 -241z" />
<glyph unicode="&#xb5;" d="M18 -145q0 31 7.5 54t34 60t42 69t25.5 52q23 33 44.5 104.5t41.5 153.5l158 746h102l-160 -701q-12 -61 -12 -106q0 -86 40 -126t101 -40q98 0 175 125t147 409l108 439h111l-125 -516q-18 -80 -18 -164q0 -66 10 -117t29.5 -83t42.5 -32q37 0 74.5 45t68.5 90 q-4 -8 -11 -21t-20 -34q25 59 49 121q29 58 60 117q4 -12 8 -33t4 -37q0 -45 -4 -78t-18.5 -88t-32.5 -82q-27 -31 -51 -61q-16 -35 -48 -55.5t-67 -20.5q-59 0 -99 56.5t-56.5 118t-24.5 116.5q-29 -125 -132.5 -232.5t-205.5 -107.5q-43 45 -76 80t-55 35q-16 0 -56.5 -73 t-144.5 -159z" />
<glyph unicode="&#xb6;" horiz-adv-x="1232" d="M117 1077q0 152 96 276t395 124h506v-82h-96v-1049v-577h-96v1046v580h-256v-1049v-577h-97v913q-193 0 -322.5 104.5t-129.5 290.5z" />
<glyph unicode="&#xb8;" d="M459 -354l26 65l33 -10l94 -14q119 0 119 86q0 78 -88 77q-31 0 -49.5 -3t-30.5 -5l-12 11l59 145l76 -2l-33 -74q35 6 64 6q76 0 122 -37.5t46 -103.5q0 -78 -65.5 -126t-192.5 -48q-43 0 -84 7t-84 26z" />
<glyph unicode="&#xb9;" d="M408 1487v45l194 63v-721h137v-40h-325v40h141v660z" />
<glyph unicode="&#xba;" d="M362 1262q0 145 60.5 213.5t146.5 68.5q82 0 145.5 -66t63.5 -216q0 -152 -62.5 -218.5t-146.5 -66.5q-82 0 -144.5 67.5t-62.5 217.5zM369 811h385v57h-385v-57zM410 1262q0 -102 34.5 -172t124.5 -70t125 71t35 171t-35 170.5t-125 70.5q-88 0 -123.5 -72.5 t-35.5 -168.5z" />
<glyph unicode="&#xbb;" horiz-adv-x="1232" d="M66 281l469 448l-469 451l59 61l530 -512l-530 -514zM573 281l471 448l-471 451l60 61l532 -512l-532 -514z" />
<glyph unicode="&#xbc;" d="M86 1507v45l195 64v-721h137v-41h-326v41h141v659zM211 33l713 1562h69l-712 -1562h-70zM700 295v35l273 520h76v-514h106v-41h-106v-199h-48v199h-301zM754 336h247v479z" />
<glyph unicode="&#xbd;" horiz-adv-x="1239" d="M100 1487v45l195 63v-721h137v-40h-326v40h142v660zM299 20l602 1543h70l-613 -1543h-59zM750 27q0 127 30.5 189.5t139 156.5t140.5 140t32 97q0 129 -127 129q-70 0 -110 -44t-40 -113h-47q0 86 54.5 142t142.5 56q80 0 127 -45t47 -127q0 -72 -40 -122t-136.5 -136 t-130 -145.5t-33.5 -136.5h344v-41h-393z" />
<glyph unicode="&#xbe;" d="M84 965l43 24q27 -53 66.5 -81.5t99.5 -28.5q76 0 124 44t48 119q0 90 -55.5 137.5t-143.5 47.5v41q68 0 116 44t48 111q0 57 -42 97.5t-99 40.5q-49 0 -89 -28t-65 -75l-41 23q31 57 83 89t116 32q80 0 133 -53.5t53 -131.5q0 -57 -32.5 -100t-86.5 -66 q74 -25 114 -74.5t40 -123.5q0 -94 -61.5 -155.5t-157.5 -61.5q-70 0 -120 32.5t-91 96.5zM242 12l712 1563h70l-713 -1563h-69zM608 264v35l273 520h75v-514h107v-41h-107v-198h-47v198h-301zM662 305h247v479z" />
<glyph unicode="&#xbf;" horiz-adv-x="1232" d="M283 324q0 109 41 173t133 137t107.5 108.5t15.5 148.5v125h96v-201q0 -35 -3 -60.5t-15.5 -53t-57.5 -69.5t-103.5 -87t-88 -96.5t-29.5 -131.5q0 -119 66.5 -191.5t185.5 -72.5q104 0 171.5 63.5t67.5 168.5h103q0 -143 -97.5 -228.5t-246.5 -85.5q-162 0 -254 94.5 t-92 258.5zM471 1366q0 57 39 98t98 41q57 0 98.5 -41t41.5 -98q0 -55 -41 -96t-99 -41q-57 0 -97 40t-40 97z" />
<glyph unicode="&#xc0;" d="M135 -10l491 1536l336 -1049l160 -487h-111l-133 449h-501l-136 -449h-106zM256 1808l75 86l326 -266l-45 -61zM397 520h461l-232 744z" />
<glyph unicode="&#xc1;" d="M125 0l491 1536l336 -1049l160 -487h-111l-133 449h-501l-136 -449h-106zM387 530h461l-232 744zM611 1671l325 266l76 -86l-356 -241z" />
<glyph unicode="&#xc2;" d="M125 0l491 1536l336 -1049l160 -487h-111l-133 449h-501l-136 -449h-106zM387 530h461l-232 744zM457 1606l120 268h84l152 -268h-60l-108 199h-47l-84 -199h-57z" />
<glyph unicode="&#xc3;" d="M125 0l491 1536l336 -1049l160 -487h-111l-133 449h-501l-136 -449h-106zM316 1571q25 106 85 156.5t132 50.5q29 0 63.5 -9.5t39.5 -11.5t34 -18l49 -23l55 -24l43 -6q49 0 76 29.5t41 72.5h60q0 -27 -9.5 -52.5t-34 -67.5t-51 -54t-94.5 -12q-37 -2 -55 -3 q-16 0 -31.5 4.5t-45.5 23t-48 22.5l-47 14l-49 14l-49 6q-16 0 -27.5 -8t-33 -33.5t-42.5 -70.5h-61zM387 530h461l-232 744z" />
<glyph unicode="&#xc4;" d="M125 0l491 1536l336 -1049l160 -487h-111l-133 449h-501l-136 -449h-106zM387 530h461l-232 744zM393 1655q0 37 22.5 63.5t59.5 26.5t63.5 -22.5t26.5 -59.5t-22.5 -63.5t-59.5 -26.5t-63.5 22.5t-26.5 59.5zM688 1655q0 37 22.5 63.5t59.5 26.5t63.5 -22.5t26.5 -59.5 t-22.5 -63.5t-59.5 -26.5t-63.5 22.5t-26.5 59.5z" />
<glyph unicode="&#xc5;" d="M125 0l491 1536l336 -1049l160 -487h-111l-133 449h-501l-136 -449h-106zM387 530h461l-232 744zM522 1718q0 43 29 74t72 31t73.5 -29t30.5 -70q0 -43 -28.5 -73.5t-71.5 -30.5t-74 26.5t-31 71.5zM559 1718q0 -29 19.5 -48t48.5 -19q27 0 45 22t18 51q0 25 -20.5 43.5 t-46.5 18.5q-63 0 -64 -68z" />
<glyph unicode="&#xc6;" d="M43 31l471 1454l635 2v-82h-528v-596h448v-82h-448v-635h542v-82h-639l-2 471l-237 -2l-135 -448h-107zM295 561l237 2v721z" />
<glyph unicode="&#xc7;" d="M205 741q0 201 33.5 371t139 294t298.5 124q135 0 231.5 -86t108.5 -221h-96q0 96 -72 160.5t-172 64.5q-158 0 -239 -111.5t-105.5 -265t-24.5 -319.5q0 -168 23.5 -313.5t101.5 -253t232 -107.5q117 0 196.5 75.5t79.5 190.5h98q-16 -158 -111.5 -253t-244.5 -95 l-29 -74q35 6 64 6q76 0 122 -37.5t46 -103.5q0 -78 -65.5 -126t-192.5 -48q-43 0 -84 7t-84 26l26 65l33 -10l94 -14q119 0 119 86q0 78 -88 77q-31 0 -49.5 -3t-30.5 -5l-12 11l59 145q-233 23 -319 240t-86 503z" />
<glyph unicode="&#xc8;" d="M309 0v1477h723v-82h-626v-596h448v-82h-448v-635h641v-82h-738zM361 1763l75 86l326 -266l-45 -61z" />
<glyph unicode="&#xc9;" d="M309 0v1477h723v-82h-626v-596h448v-82h-448v-635h641v-82h-738zM674 1616l325 266l76 -86l-356 -241z" />
<glyph unicode="&#xca;" d="M309 0v1477h723v-82h-626v-596h448v-82h-448v-635h641v-82h-738zM465 1583l120 268h84l152 -268h-60l-108 199h-47l-84 -199h-57z" />
<glyph unicode="&#xcb;" d="M309 0v1477h723v-82h-626v-596h448v-82h-448v-635h641v-82h-738zM438 1665q0 37 22.5 63.5t59.5 26.5t63.5 -22.5t26.5 -59.5t-22.5 -63.5t-59.5 -26.5t-63.5 22.5t-26.5 59.5zM733 1665q0 37 22.5 63.5t59.5 26.5t63.5 -22.5t26.5 -59.5t-22.5 -63.5t-59.5 -26.5 t-63.5 22.5t-26.5 59.5z" />
<glyph unicode="&#xcc;" d="M271 1771l75 86l326 -266l-45 -61zM360 0v82h205v1313h-205v82h506v-82h-204v-1313h204v-82h-506z" />
<glyph unicode="&#xcd;" d="M360 0v82h205v1313h-205v82h506v-82h-204v-1313h204v-82h-506zM561 1599l325 266l76 -86l-356 -241z" />
<glyph unicode="&#xce;" d="M360 0v82h205v1313h-205v82h506v-82h-204v-1313h204v-82h-506zM449 1579l120 268h84l152 -268h-60l-108 199h-47l-84 -199h-57z" />
<glyph unicode="&#xcf;" d="M360 0v82h205v1313h-205v82h506v-82h-204v-1313h204v-82h-506zM375 1692q0 45 23.5 77.5t60.5 32.5t65.5 -28.5t28.5 -71.5q0 -45 -25.5 -79t-60.5 -34q-37 0 -64.5 30t-27.5 73zM682 1692q0 43 25.5 76.5t60.5 33.5q37 0 65.5 -28.5t28.5 -71.5q0 -45 -25.5 -79 t-60.5 -34q-39 0 -66.5 30t-27.5 73z" />
<glyph unicode="&#xd0;" d="M57 713v90h195v674h369q123 0 211 -57.5t134 -142.5t72.5 -218t26.5 -322q0 -244 -39 -378t-88 -204.5t-132 -112.5t-214 -42h-340v713h-195zM348 82h182q143 0 231.5 37t131.5 136t55.5 223t12.5 259q0 166 -11.5 281t-60.5 212t-134 131t-225 34h-182v-592h225v-90 h-225v-631z" />
<glyph unicode="&#xd1;" d="M256 0v1477h139l502 -1266l4 4v1262h96v-1491h-100l-541 1357l-4 -4v-1339h-96zM281 1579q25 106 85 156.5t132 50.5q29 0 63.5 -9.5t39.5 -11.5t34 -18l49 -23l55 -24l43 -6q49 0 76 29.5t41 72.5h60q0 -27 -9.5 -52.5t-34 -67.5t-51 -54t-94.5 -12q-37 -2 -55 -3 q-16 0 -31.5 4.5t-45.5 23t-48 22.5l-47 14l-49 14l-49 6q-16 0 -27.5 -8t-33 -33.5t-42.5 -70.5h-61z" />
<glyph unicode="&#xd2;" d="M176 737q0 213 30 376t127 277.5t281 114.5q285 0 360 -224.5t75 -543.5q0 -434 -116 -600t-319 -166t-320.5 164t-117.5 602zM217 1820l75 86l326 -266l-45 -61zM279 737q0 -383 89 -533.5t246 -150.5q160 0 245 153.5t85 530.5q0 383 -86 534.5t-244 151.5 q-168 0 -251.5 -158.5t-83.5 -527.5z" />
<glyph unicode="&#xd3;" d="M176 737q0 213 30 376t127 277.5t281 114.5q285 0 360 -224.5t75 -543.5q0 -434 -116 -600t-319 -166t-320.5 164t-117.5 602zM279 737q0 -383 89 -533.5t246 -150.5q160 0 245 153.5t85 530.5q0 383 -86 534.5t-244 151.5q-168 0 -251.5 -158.5t-83.5 -527.5zM633 1642 l325 266l76 -86l-356 -241z" />
<glyph unicode="&#xd4;" d="M176 737q0 213 30 376t127 277.5t281 114.5q285 0 360 -224.5t75 -543.5q0 -434 -116 -600t-319 -166t-320.5 164t-117.5 602zM279 737q0 -383 89 -533.5t246 -150.5q160 0 245 153.5t85 530.5q0 383 -86 534.5t-244 151.5q-168 0 -251.5 -158.5t-83.5 -527.5zM455 1595 l120 268h84l152 -268h-60l-108 199h-47l-84 -199h-57z" />
<glyph unicode="&#xd5;" d="M176 737q0 213 30 376t127 277.5t281 114.5q285 0 360 -224.5t75 -543.5q0 -434 -116 -600t-319 -166t-320.5 164t-117.5 602zM275 1540q25 106 85 156.5t132 50.5q29 0 63.5 -9.5t39.5 -11.5t34 -18l49 -23l55 -24l43 -6q49 0 76 29.5t41 72.5h60q0 -27 -9.5 -52.5 t-34 -67.5t-51 -54t-94.5 -12q-37 -2 -55 -3q-16 0 -31.5 4.5t-45.5 23t-48 22.5l-47 14l-49 14l-49 6q-16 0 -27.5 -8t-33 -33.5t-42.5 -70.5h-61zM279 737q0 -383 89 -533.5t246 -150.5q160 0 245 153.5t85 530.5q0 383 -86 534.5t-244 151.5q-168 0 -251.5 -158.5 t-83.5 -527.5z" />
<glyph unicode="&#xd6;" d="M176 737q0 213 30 376t127 277.5t281 114.5q285 0 360 -224.5t75 -543.5q0 -434 -116 -600t-319 -166t-320.5 164t-117.5 602zM279 737q0 -383 89 -533.5t246 -150.5q160 0 245 153.5t85 530.5q0 383 -86 534.5t-244 151.5q-168 0 -251.5 -158.5t-83.5 -527.5zM399 1655 q0 37 22.5 63.5t59.5 26.5t63.5 -22.5t26.5 -59.5t-22.5 -63.5t-59.5 -26.5t-63.5 22.5t-26.5 59.5zM694 1655q0 37 22.5 63.5t59.5 26.5t63.5 -22.5t26.5 -59.5t-22.5 -63.5t-59.5 -26.5t-63.5 22.5t-26.5 59.5z" />
<glyph unicode="&#xd7;" d="M166 37l852 967h98l-860 -975zM223 1012h99l737 -967h-107z" />
<glyph unicode="&#xd8;" d="M209 737q0 160 8 268.5t46 225.5t127 195.5t224 78.5q61 0 117.5 -19.5t99.5 -55.5l39 102h95l-68 -174q43 -57 72.5 -143.5t40 -203t10.5 -274.5q0 -160 -8 -268.5t-46 -223t-128 -194.5t-224 -80q-61 0 -115.5 19.5t-101.5 56.5l-39 -102h-94l66 174 q-43 61 -66.5 130.5t-39 184.5t-15.5 303zM305 737q0 -154 6 -242.5t23.5 -148t23 -76t15.5 -39.5l424 1108q-35 39 -80 62.5t-103 23.5q-111 0 -179 -81.5t-92 -181t-31 -210t-7 -215.5zM432 137q35 -39 80 -62.5t102 -23.5q111 0 179.5 82t92 179.5t31 209t7.5 215.5 q0 154 -6.5 244t-22.5 145.5t-22.5 74.5t-16.5 44z" />
<glyph unicode="&#xd9;" d="M222 1779l75 86l326 -266l-45 -61zM225 356v1121h97v-1049q0 -199 79.5 -287t212.5 -88t211 84t78 258v1082h96v-1098q0 -201 -119.5 -304.5t-265.5 -103.5q-156 0 -272.5 113t-116.5 272z" />
<glyph unicode="&#xda;" d="M225 356v1121h97v-1049q0 -199 79.5 -287t212.5 -88t211 84t78 258v1082h96v-1098q0 -201 -119.5 -304.5t-265.5 -103.5q-156 0 -272.5 113t-116.5 272zM594 1583l325 266l76 -86l-356 -241z" />
<glyph unicode="&#xdb;" d="M225 356v1121h97v-1049q0 -199 79.5 -287t212.5 -88t211 84t78 258v1082h96v-1098q0 -201 -119.5 -304.5t-265.5 -103.5q-156 0 -272.5 113t-116.5 272zM441 1581l120 268h84l152 -268h-60l-108 199h-47l-84 -199h-57z" />
<glyph unicode="&#xdc;" d="M225 356v1121h97v-1049q0 -199 79.5 -287t212.5 -88t211 84t78 258v1082h96v-1098q0 -201 -119.5 -304.5t-265.5 -103.5q-156 0 -272.5 113t-116.5 272zM383 1648q0 37 22.5 63.5t59.5 26.5t63.5 -22.5t26.5 -59.5t-22.5 -63.5t-59.5 -26.5t-63.5 22.5t-26.5 59.5z M678 1648q0 37 22.5 63.5t59.5 26.5t63.5 -22.5t26.5 -59.5t-22.5 -63.5t-59.5 -26.5t-63.5 22.5t-26.5 59.5z" />
<glyph unicode="&#xdd;" d="M158 1477h108l309 -740l312 740h108l-370 -852v-625h-97v625zM578 1542l325 266l76 -86l-356 -241z" />
<glyph unicode="&#xde;" d="M156 8v82h204v1313h-204v82h506v-82h-205v-170h190q170 0 248 -100.5t78 -251.5q0 -172 -96.5 -260.5t-268.5 -88.5h-149l-2 -442h205v-82h-506zM459 598h137q152 0 223.5 74t71.5 207q0 154 -67.5 221t-170.5 67h-194v-569z" />
<glyph unicode="&#xdf;" horiz-adv-x="1232" d="M303 0v1049v143q0 109 85 211t222 102q150 0 241 -107.5t91 -262.5q0 -111 -55.5 -197t-153.5 -143q141 -47 204.5 -149.5t63.5 -260.5q0 -201 -89 -304.5t-226 -103.5q-86 0 -162 56l43 69q29 -18 60.5 -30.5t66.5 -12.5q96 0 153.5 87t57.5 229q0 195 -93 282.5 t-271 87.5v82q131 0 218 89.5t87 226.5q0 115 -66.5 197.5t-179.5 82.5q-94 0 -147.5 -65.5t-53.5 -179.5v-1049v-129h-96z" />
<glyph unicode="&#xe0;" d="M205 1470l75 86l326 -266l-45 -61zM227 322q0 164 87 274.5t239 110.5q66 0 130.5 -19.5t133.5 -52.5q0 215 -45 303t-176 88q-63 0 -121.5 -18.5t-138.5 -55.5l-23 90q82 33 148.5 49.5t140.5 16.5q147 0 229 -100.5t82 -282.5l-12 -442q0 -78 12 -139.5t41 -153.5 l-88 -13q-31 92 -41 185q-66 -92 -131 -138.5t-166 -46.5q-143 0 -222 98.5t-79 246.5zM324 313q0 -102 53 -178t151 -76q92 0 157 58t126 162v280q-53 27 -114.5 46.5t-121.5 19.5q-127 0 -189 -89.5t-62 -222.5z" />
<glyph unicode="&#xe1;" d="M227 322q0 164 87 274.5t239 110.5q66 0 130.5 -19.5t133.5 -52.5q0 215 -45 303t-176 88q-63 0 -121.5 -18.5t-138.5 -55.5l-23 90q82 33 148.5 49.5t140.5 16.5q147 0 229 -100.5t82 -282.5l-12 -442q0 -78 12 -139.5t41 -153.5l-88 -13q-31 92 -41 185 q-66 -92 -131 -138.5t-166 -46.5q-143 0 -222 98.5t-79 246.5zM324 313q0 -102 53 -178t151 -76q92 0 157 58t126 162v280q-53 27 -114.5 46.5t-121.5 19.5q-127 0 -189 -89.5t-62 -222.5zM588 1270l325 266l76 -86l-356 -241z" />
<glyph unicode="&#xe2;" d="M227 322q0 164 87 274.5t239 110.5q66 0 130.5 -19.5t133.5 -52.5q0 215 -45 303t-176 88q-63 0 -121.5 -18.5t-138.5 -55.5l-23 90q82 33 148.5 49.5t140.5 16.5q147 0 229 -100.5t82 -282.5l-12 -442q0 -78 12 -139.5t41 -153.5l-88 -13q-31 92 -41 185 q-66 -92 -131 -138.5t-166 -46.5q-143 0 -222 98.5t-79 246.5zM324 313q0 -102 53 -178t151 -76q92 0 157 58t126 162v280q-53 27 -114.5 46.5t-121.5 19.5q-127 0 -189 -89.5t-62 -222.5zM416 1208l120 268h84l152 -268h-60l-108 199h-47l-84 -199h-57z" />
<glyph unicode="&#xe3;" d="M227 322q0 164 87 274.5t239 110.5q66 0 130.5 -19.5t133.5 -52.5q0 215 -45 303t-176 88q-63 0 -121.5 -18.5t-138.5 -55.5l-23 90q82 33 148.5 49.5t140.5 16.5q147 0 229 -100.5t82 -282.5l-12 -442q0 -78 12 -139.5t41 -153.5l-88 -13q-31 92 -41 185 q-66 -92 -131 -138.5t-166 -46.5q-143 0 -222 98.5t-79 246.5zM244 1151q25 106 85 156.5t132 50.5q29 0 63.5 -9.5t39.5 -11.5t34 -18l49 -23l55 -24l43 -6q49 0 76 29.5t41 72.5h60q0 -27 -9.5 -52.5t-34 -67.5t-51 -54t-94.5 -12q-37 -2 -55 -3q-16 0 -31.5 4.5t-45.5 23 t-48 22.5l-47 14l-49 14l-49 6q-16 0 -27.5 -8t-33 -33.5t-42.5 -70.5h-61zM324 313q0 -102 53 -178t151 -76q92 0 157 58t126 162v280q-53 27 -114.5 46.5t-121.5 19.5q-127 0 -189 -89.5t-62 -222.5z" />
<glyph unicode="&#xe4;" d="M227 322q0 164 87 274.5t239 110.5q66 0 130.5 -19.5t133.5 -52.5q0 215 -45 303t-176 88q-63 0 -121.5 -18.5t-138.5 -55.5l-23 90q82 33 148.5 49.5t140.5 16.5q147 0 229 -100.5t82 -282.5l-12 -442q0 -78 12 -139.5t41 -153.5l-88 -13q-31 92 -41 185 q-66 -92 -131 -138.5t-166 -46.5q-143 0 -222 98.5t-79 246.5zM324 313q0 -102 53 -178t151 -76q92 0 157 58t126 162v280q-53 27 -114.5 46.5t-121.5 19.5q-127 0 -189 -89.5t-62 -222.5zM383 1290q0 37 22.5 63.5t59.5 26.5t63.5 -22.5t26.5 -59.5t-22.5 -63.5 t-59.5 -26.5t-63.5 22.5t-26.5 59.5zM678 1290q0 37 22.5 63.5t59.5 26.5t63.5 -22.5t26.5 -59.5t-22.5 -63.5t-59.5 -26.5t-63.5 22.5t-26.5 59.5z" />
<glyph unicode="&#xe5;" d="M227 322q0 164 87 274.5t239 110.5q66 0 130.5 -19.5t133.5 -52.5q0 215 -45 303t-176 88q-63 0 -121.5 -18.5t-138.5 -55.5l-23 90q82 33 148.5 49.5t140.5 16.5q147 0 229 -100.5t82 -282.5l-12 -442q0 -78 12 -139.5t41 -153.5l-88 -13q-31 92 -41 185 q-66 -92 -131 -138.5t-166 -46.5q-143 0 -222 98.5t-79 246.5zM324 313q0 -102 53 -178t151 -76q92 0 157 58t126 162v280q-53 27 -114.5 46.5t-121.5 19.5q-127 0 -189 -89.5t-62 -222.5zM473 1336q0 55 36 93t89 38t92 -35t39 -88q0 -55 -35.5 -93t-89.5 -38q-53 0 -92 35 t-39 88zM520 1336q0 -33 26 -58.5t58 -25.5q33 0 56.5 27.5t23.5 64.5q0 33 -24.5 55.5t-61.5 22.5q-33 0 -55.5 -24.5t-22.5 -61.5z" />
<glyph unicode="&#xe6;" d="M84 340q0 164 69.5 274.5t194.5 110.5q47 0 84 -20q47 -33 78 -52v123q0 119 -13.5 185.5t-113.5 66.5q-49 0 -96 -18.5t-115 -55.5l-18 90q115 55 153.5 68.5t81.5 13.5q90 0 129 -36.5t64 -143.5q39 94 70.5 142.5t152.5 48.5q139 0 235.5 -135.5t96.5 -446.5l-521 -8 q0 -256 38 -321.5t107.5 -100.5t102.5 -35q49 0 99.5 26.5t117.5 78.5l33 -91q-84 -47 -159.5 -72.5t-153.5 -25.5q-92 0 -136 52.5t-100 170.5q-4 -4 -79.5 -118.5t-157.5 -114.5q-117 0 -180.5 98.5t-63.5 245.5zM170 332q0 -98 40 -164t118 -66q72 0 92 29t86 166v281 q-37 23 -72 45q-39 20 -84 20q-98 0 -139 -87t-41 -224zM633 637h401q0 168 -51 284.5t-172 116.5q-113 0 -145.5 -108.5t-32.5 -292.5z" />
<glyph unicode="&#xe7;" d="M225 541q0 301 132 439t313 138q119 0 210 -56t164 -165l-88 -57q-47 90 -118.5 143t-167.5 53q-131 0 -239.5 -109.5t-108.5 -369.5q0 -256 106.5 -371.5t247.5 -115.5q82 0 156.5 47t138.5 123l67 -70q-84 -88 -160.5 -135t-172.5 -47l4 -31q6 -23 31.5 -45.5 t33.5 -35.5t20.5 -32.5t12.5 -40.5q0 -53 -48 -90t-143 -37q-31 0 -62.5 5.5t-59.5 19.5l18 47l25 -8q27 -10 69 -10q86 0 86 63q0 31 -12 41t-26.5 36t-20.5 53.5t-7 43t-1 23.5q-164 20 -282 150t-118 401z" />
<glyph unicode="&#xe8;" d="M199 537q0 233 108.5 402t331.5 169q164 0 281.5 -136.5t117.5 -445.5h-743q0 -260 96 -363.5t246 -103.5q90 0 172 27t170 80l41 -90q-106 -47 -197.5 -73t-189.5 -26q-221 0 -327.5 163t-106.5 397zM295 608h645q0 160 -82 289t-231 129q-150 0 -241 -130t-91 -288z M297 1409l75 86l326 -266l-45 -61z" />
<glyph unicode="&#xe9;" d="M199 537q0 233 108.5 402t331.5 169q164 0 281.5 -136.5t117.5 -445.5h-743q0 -260 96 -363.5t246 -103.5q90 0 172 27t170 80l41 -90q-106 -47 -197.5 -73t-189.5 -26q-221 0 -327.5 163t-106.5 397zM295 608h645q0 160 -82 289t-231 129q-150 0 -241 -130t-91 -288z M609 1229l325 266l76 -86l-356 -241z" />
<glyph unicode="&#xea;" d="M199 537q0 233 108.5 402t331.5 169q164 0 281.5 -136.5t117.5 -445.5h-743q0 -260 96 -363.5t246 -103.5q90 0 172 27t170 80l41 -90q-106 -47 -197.5 -73t-189.5 -26q-221 0 -327.5 163t-106.5 397zM295 608h645q0 160 -82 289t-231 129q-150 0 -241 -130t-91 -288z M457 1198l120 268h84l152 -268h-60l-108 199h-47l-84 -199h-57z" />
<glyph unicode="&#xeb;" d="M186 549q0 233 108.5 402t332.5 169q164 0 281.5 -136t117.5 -445h-743q0 -260 96 -363.5t246 -103.5q90 0 172 26.5t170 79.5l41 -90q-106 -47 -197.5 -72.5t-189.5 -25.5q-221 0 -328 162.5t-107 396.5zM283 621h645q0 160 -82 288.5t-232 128.5t-240.5 -130 t-90.5 -287zM356 1268q0 41 29 69.5t70 28.5q39 0 67.5 -28.5t28.5 -69.5t-27.5 -69t-68.5 -28t-70 27t-29 70zM707 1268q0 41 28.5 69.5t69.5 28.5q39 0 67.5 -28.5t28.5 -69.5t-27.5 -69t-68.5 -28t-69.5 27t-28.5 70z" />
<glyph unicode="&#xec;" d="M92 1419l76 86l326 -266l-45 -61zM276 1001v84h412v-1085h-96v1001h-316z" />
<glyph unicode="&#xed;" d="M348 1012v84h412v-1086h-96v1002h-316zM516 1239l326 266l76 -86l-357 -241z" />
<glyph unicode="&#xee;" d="M276 1001v84h412v-1085h-96v1001h-316zM324 1249l120 269h84l152 -269h-59l-109 199h-47l-84 -199h-57z" />
<glyph unicode="&#xef;" d="M276 1001v84h412v-1085h-96v1001h-316zM281 1321q0 37 22 63.5t59 26.5t64 -22.5t27 -59.5t-22.5 -63.5t-59.5 -26.5t-63.5 22.5t-26.5 59.5zM575 1321q0 37 22.5 63.5t59.5 26.5t64 -22.5t27 -59.5t-23 -63.5t-59 -26.5q-37 0 -64 22.5t-27 59.5z" />
<glyph unicode="&#xf0;" d="M203 481q0 178 96 313.5t268 135.5q115 0 201 -60.5t150 -167.5q0 135 -26 247t-89 214l-139 -106l-58 57l150 117q-18 25 -42 52.5t-68 69.5t-125 91t-128 49q-18 0 -28 -8l51 106q59 14 151 -49t138.5 -107t84 -77t56.5 -55l129 98l65 -58l-147 -112l29 -57 q43 -80 67.5 -203t24.5 -340q0 -117 -16.5 -228.5t-60.5 -208t-125 -157t-191 -60.5q-201 0 -309.5 145.5t-108.5 358.5zM299 479q0 -170 78 -295t239 -125q139 0 214 117t75 262q0 84 -19.5 149.5t-65.5 126t-106.5 97.5t-127.5 37q-145 0 -216 -108.5t-71 -260.5z" />
<glyph unicode="&#xf1;" d="M205 1098h90l39 -314q35 127 147.5 225.5t241.5 98.5q133 0 192.5 -97.5t59.5 -238.5v-772h-96v727q0 137 -29 218t-139 81q-139 0 -253 -145.5t-114 -434.5v-446h-96v543q0 211 -11.5 329.5t-31.5 225.5zM275 1264q25 106 85 156.5t132 50.5q29 0 63.5 -9.5t39.5 -11.5 t34 -18l49 -23l55 -24l43 -6q49 0 76 29.5t41 72.5h60q0 -27 -9.5 -52.5t-34 -67.5t-51 -54t-94.5 -12q-37 -2 -55 -3q-16 0 -31.5 4.5t-45.5 23t-48 22.5l-47 14l-49 14l-49 6q-16 0 -27.5 -8t-33 -33.5t-42.5 -70.5h-61z" />
<glyph unicode="&#xf2;" d="M215 543q0 291 122 428t292 137q166 0 292 -132t126 -433q0 -299 -126 -432.5t-292 -133.5q-164 0 -289 132.5t-125 433.5zM236 1429l75 86l326 -266l-45 -61zM311 543q0 -201 70 -342.5t248 -141.5q180 0 249.5 141.5t69.5 342.5q0 199 -69.5 341t-249.5 142 q-178 0 -248 -141.5t-70 -341.5z" />
<glyph unicode="&#xf3;" d="M215 543q0 291 122 428t292 137q166 0 292 -132t126 -433q0 -299 -126 -432.5t-292 -133.5q-164 0 -289 132.5t-125 433.5zM311 543q0 -201 70 -342.5t248 -141.5q180 0 249.5 141.5t69.5 342.5q0 199 -69.5 341t-249.5 142q-178 0 -248 -141.5t-70 -341.5zM609 1239 l325 266l76 -86l-356 -241z" />
<glyph unicode="&#xf4;" d="M215 543q0 291 122 428t292 137q166 0 292 -132t126 -433q0 -299 -126 -432.5t-292 -133.5q-164 0 -289 132.5t-125 433.5zM311 543q0 -201 70 -342.5t248 -141.5q180 0 249.5 141.5t69.5 342.5q0 199 -69.5 341t-249.5 142q-178 0 -248 -141.5t-70 -341.5zM467 1198 l120 268h84l152 -268h-60l-108 199h-47l-84 -199h-57z" />
<glyph unicode="&#xf5;" d="M215 543q0 291 122 428t292 137q166 0 292 -132t126 -433q0 -299 -126 -432.5t-292 -133.5q-164 0 -289 132.5t-125 433.5zM305 1172q25 106 85 156.5t132 50.5q29 0 63.5 -9.5t39.5 -11.5t34 -18l49 -23l55 -24l43 -6q49 0 76 29.5t41 72.5h60q0 -27 -9.5 -52.5 t-34 -67.5t-51 -54t-94.5 -12q-37 -2 -55 -3q-16 0 -31.5 4.5t-45.5 23t-48 22.5l-47 14l-49 14l-49 6q-16 0 -27.5 -8t-33 -33.5t-42.5 -70.5h-61zM311 543q0 -201 70 -342.5t248 -141.5q180 0 249.5 141.5t69.5 342.5q0 199 -69.5 341t-249.5 142q-178 0 -248 -141.5 t-70 -341.5z" />
<glyph unicode="&#xf6;" d="M215 543q0 291 122 428t292 137q166 0 292 -132t126 -433q0 -299 -126 -432.5t-292 -133.5q-164 0 -289 132.5t-125 433.5zM311 543q0 -201 70 -342.5t248 -141.5q180 0 249.5 141.5t69.5 342.5q0 199 -69.5 341t-249.5 142q-178 0 -248 -141.5t-70 -341.5zM403 1280 q0 37 22.5 63.5t59.5 26.5t63.5 -22.5t26.5 -59.5t-22.5 -63.5t-59.5 -26.5t-63.5 22.5t-26.5 59.5zM698 1280q0 37 22.5 63.5t59.5 26.5t63.5 -22.5t26.5 -59.5t-22.5 -63.5t-59.5 -26.5t-63.5 22.5t-26.5 59.5z" />
<glyph unicode="&#xf7;" horiz-adv-x="6213" d="M283 475h137q25 -188 104.5 -282.5t220.5 -94.5q119 0 215.5 87t96.5 249v31q-4 20 -10.5 89t-259 181.5t-356 184t-103.5 303.5q0 41 12 142t129 187t270 86q174 0 302 -104t128 -289h-149q0 123 -98.5 206t-219.5 83q-100 0 -165.5 -65.5t-65.5 -202.5q-2 -18 -2 -52 q0 -180 190 -280q178 -80 357 -158q192 -112 192 -319q0 -229 -141 -362.5t-330 -133.5q-188 0 -321 133t-133 381zM1384 717q0 158 71 323.5t288 186.5q190 0 294.5 -129t104.5 -348q0 -346 -65.5 -570.5t-333.5 -224.5q-213 0 -286 187.5t-73 574.5zM1509 698 q0 -274 35 -453t199 -179q152 0 213 158.5t61 369.5q0 248 -54 381t-220 133q-129 0 -181.5 -142.5t-52.5 -267.5zM2271 1075v119h137v188q0 170 71 212t216 42v-116q-100 0 -124.5 -27t-24.5 -131v-168h137v-119h-137v-1075h-138v1075h-137zM2728 1075v119h119v358h135 v-358h158v-119h-158v-854q0 -129 78 -129q33 0 80 25v-117q-25 -10 -48.5 -17.5t-56.5 -7.5q-80 0 -134 61.5t-54 217.5v821h-119zM3310 0v1624h149v-809l567 809h189l-481 -686l495 -938h-170l-424 803l-176 -223v-580h-149zM4325 561q0 356 91.5 503.5t269.5 147.5 q170 0 258 -139t88 -360v-82q-6 -35 -8 -51h-561q4 -172 37.5 -343t185.5 -171q104 0 157.5 86t53.5 188q0 20 -2 31h129q0 -213 -97.5 -314.5t-240.5 -101.5q-231 0 -296 187.5t-65 418.5zM4463 698h432q0 223 -58.5 307.5t-150.5 84.5q-111 0 -167 -89.5t-56 -302.5z M5143 1194h135l262 -973l254 973h137l-379 -1376q-23 -109 -100.5 -169.5t-196.5 -60.5q-33 0 -74 6v119q31 -6 60 -6q92 0 152.5 81t60.5 198z" />
<glyph unicode="&#xf8;" d="M215 543q0 291 122 428t292 137q41 0 76.5 -7t74.5 -24l39 97h94l-59 -138q88 -63 140.5 -183t52.5 -310q0 -299 -126 -432.5t-292 -133.5q-57 0 -101.5 11.5t-97.5 42.5l-31 -76h-84l52 125q-72 70 -112 181.5t-40 281.5zM311 543q0 -109 20.5 -208t71.5 -167l347 836 q-55 23 -121 22q-178 0 -248 -141.5t-70 -341.5zM463 109q70 -49 166 -50q180 0 249.5 141.5t69.5 342.5q0 129 -27.5 237t-99.5 176z" />
<glyph unicode="&#xf9;" d="M256 319v766h96v-720q0 -305 168 -306q137 0 252 153t115 433v440h96v-536q0 -217 11 -328.5t34 -220.5h-92l-41 307q-35 -127 -148.5 -228.5t-238.5 -101.5q-133 0 -192.5 99.5t-59.5 242.5zM256 1388l75 86l326 -266l-45 -61z" />
<glyph unicode="&#xfa;" d="M256 319v766h96v-720q0 -305 168 -306q137 0 252 153t115 433v440h96v-536q0 -217 11 -328.5t34 -220.5h-92l-41 307q-35 -127 -148.5 -228.5t-238.5 -101.5q-133 0 -192.5 99.5t-59.5 242.5zM609 1229l325 266l76 -86l-356 -241z" />
<glyph unicode="&#xfb;" d="M256 319v766h96v-720q0 -305 168 -306q137 0 252 153t115 433v440h96v-536q0 -217 11 -328.5t34 -220.5h-92l-41 307q-35 -127 -148.5 -228.5t-238.5 -101.5q-133 0 -192.5 99.5t-59.5 242.5zM447 1208l120 268h84l152 -268h-60l-108 199h-47l-84 -199h-57z" />
<glyph unicode="&#xfc;" d="M256 319v766h96v-720q0 -305 168 -306q137 0 252 153t115 433v440h96v-536q0 -217 11 -328.5t34 -220.5h-92l-41 307q-35 -127 -148.5 -228.5t-238.5 -101.5q-133 0 -192.5 99.5t-59.5 242.5zM383 1259q0 37 22.5 63.5t59.5 26.5t63.5 -22.5t26.5 -59.5t-22.5 -63.5 t-59.5 -26.5t-63.5 22.5t-26.5 59.5zM678 1259q0 37 22.5 63.5t59.5 26.5t63.5 -22.5t26.5 -59.5t-22.5 -63.5t-59.5 -26.5t-63.5 22.5t-26.5 59.5z" />
<glyph unicode="&#xfd;" d="M53 -139l82 43q25 -70 66 -119t102 -49q70 0 111 53t84 150l82 186l-353 960h107l293 -833l311 833h113l-408 -1032q-70 -180 -142.5 -289.5t-197.5 -109.5q-88 0 -153.5 58.5t-96.5 148.5zM619 1173l325 266l76 -86l-356 -241z" />
<glyph unicode="&#xfe;" d="M145 1057v90l392 125v-402h198q170 0 248 -100t78 -252q0 -172 -97.5 -261t-267.5 -89h-149v-8h-10v-328h272v-82h-649v82h280v1317zM547 233h137q150 0 221.5 75t71.5 208q0 154 -67.5 221.5t-170.5 67.5h-192v-572z" />
<glyph unicode="&#xff;" d="M53 -139l82 43q25 -70 66 -119t102 -49q70 0 111 53t84 150l82 186l-353 960h107l293 -833l311 833h113l-408 -1032q-70 -180 -142.5 -289.5t-197.5 -109.5q-88 0 -153.5 58.5t-96.5 148.5zM413 1249q0 37 22.5 63.5t59.5 26.5t63.5 -22.5t26.5 -59.5t-22.5 -63.5 t-59.5 -26.5t-63.5 22.5t-26.5 59.5zM708 1249q0 37 22.5 63.5t59.5 26.5t63.5 -22.5t26.5 -59.5t-22.5 -63.5t-59.5 -26.5t-63.5 22.5t-26.5 59.5z" />
<glyph unicode="&#x152;" d="M86 764q0 221 22.5 378.5t102.5 273.5t229 116q94 0 161 -47t108 -131v159h442v-81h-367v-422q2 -27 3 -80t4 -94h274v-82h-274v-54q0 -74 -7 -141v-440h379v-82h-454v147q-47 -102 -114 -144t-155 -42q-164 0 -259 165t-95 601zM168 764q0 -385 72.5 -534.5 t199.5 -149.5q131 0 200 152.5t69 531.5q0 385 -70 535.5t-199 150.5q-135 0 -203.5 -157.5t-68.5 -528.5z" />
<glyph unicode="&#x153;" d="M6 594q0 299 83 424t241 125h40.5t41.5 2q82 0 134 -30t97 -132q43 106 68.5 143t185.5 37q152 0 230.5 -122.5t78.5 -442.5h-499l-5 -106q29 -209 96.5 -293t186.5 -84q78 0 130 65.5t81 81.5v-115q-61 -61 -92 -91.5t-148 -30.5q-127 0 -180 61t-119 209 q-55 -145 -127.5 -205.5t-175.5 -60.5q-154 0 -251 129t-97 436zM102 594q0 -233 39 -350t213 -117q147 0 189.5 87t60.5 275q-8 51 -8 119l6 105q-18 174 -59 244.5t-189 70.5q-176 0 -214 -105.5t-38 -328.5zM696 748l6 -68h406q0 193 -36 293t-179 100 q-123 0 -148.5 -66.5t-48.5 -258.5z" />
<glyph unicode="&#x178;" d="M158 1477h108l309 -740l312 740h108l-370 -852v-625h-97v625zM362 1669q0 37 22.5 63.5t59.5 26.5t63.5 -22.5t26.5 -59.5t-22.5 -63.5t-59.5 -26.5t-63.5 22.5t-26.5 59.5zM657 1669q0 37 22.5 63.5t59.5 26.5t63.5 -22.5t26.5 -59.5t-22.5 -63.5t-59.5 -26.5 t-63.5 22.5t-26.5 59.5z" />
<glyph unicode="&#x2000;" horiz-adv-x="968" />
<glyph unicode="&#x2001;" horiz-adv-x="1937" />
<glyph unicode="&#x2002;" horiz-adv-x="968" />
<glyph unicode="&#x2003;" horiz-adv-x="1937" />
<glyph unicode="&#x2004;" horiz-adv-x="645" />
<glyph unicode="&#x2005;" horiz-adv-x="484" />
<glyph unicode="&#x2006;" horiz-adv-x="322" />
<glyph unicode="&#x2007;" horiz-adv-x="322" />
<glyph unicode="&#x2008;" horiz-adv-x="242" />
<glyph unicode="&#x2009;" horiz-adv-x="387" />
<glyph unicode="&#x200a;" horiz-adv-x="107" />
<glyph unicode="&#x2010;" d="M137 694v82h903l11 -82h-914z" />
<glyph unicode="&#x2011;" d="M137 694v82h903l11 -82h-914z" />
<glyph unicode="&#x2012;" d="M137 694v82h903l11 -82h-914z" />
<glyph unicode="&#x2013;" horiz-adv-x="1232" d="M254 694v82h721v-82h-721z" />
<glyph unicode="&#x2014;" horiz-adv-x="1232" d="M0 694v82h1049h182v-82h-1049h-182z" />
<glyph unicode="&#x2018;" horiz-adv-x="1232" d="M498 1212q0 104 82 183.5t192 109.5v-86q-55 -16 -98 -46t-62 -75l39 7q55 0 90 -35t35 -92q0 -59 -39 -96.5t-96 -37.5q-63 0 -103 50.5t-40 117.5z" />
<glyph unicode="&#x2019;" horiz-adv-x="1232" d="M498 1372q0 59 38.5 96t96.5 37q63 0 103 -50t40 -118q0 -104 -82 -183t-192 -110v86q55 16 98 46t62 75l-39 -6q-55 0 -90 35t-35 92z" />
<glyph unicode="&#x201a;" d="M498 100q0 59 38.5 96t96.5 37q63 0 103 -49.5t40 -117.5q0 -104 -82 -183.5t-192 -109.5v86q55 16 98 45.5t62 75.5l-39 -7q-55 0 -90 35t-35 92z" />
<glyph unicode="&#x201c;" horiz-adv-x="1232" d="M268 1212q0 104 82 183.5t193 109.5v-86q-55 -16 -98.5 -46t-61.5 -75l39 7q55 0 90 -35t35 -92q0 -59 -39 -96.5t-96 -37.5q-63 0 -103.5 50.5t-40.5 117.5zM725 1212q0 104 82 183.5t192 109.5v-86q-55 -16 -98 -46t-61 -75l39 7q55 0 90 -35t35 -92q0 -59 -39 -96.5 t-97 -37.5q-63 0 -103 50.5t-40 117.5z" />
<glyph unicode="&#x201d;" horiz-adv-x="1232" d="M268 1372q0 59 39 96t96 37q63 0 103.5 -50t40.5 -118q0 -104 -82 -183t-193 -110v86q55 16 98.5 46t61.5 75l-39 -6q-55 0 -90 35t-35 92zM725 1372q0 59 39 96t96 37q63 0 103.5 -50t40.5 -118q0 -104 -82 -183t-193 -110v86q55 16 98 46t62 75l-39 -6q-55 0 -90 35 t-35 92z" />
<glyph unicode="&#x201e;" d="M303 110q0 59 38.5 96t96.5 37q63 0 103 -49.5t40 -117.5q0 -104 -82 -183.5t-192 -109.5v86q55 16 98 45.5t62 75.5l-39 -7q-55 0 -90 35t-35 92zM652 100q0 59 38.5 96t96.5 37q63 0 103 -49.5t40 -117.5q0 -104 -82 -183.5t-192 -109.5v86q55 16 98 45.5t62 75.5 l-39 -7q-55 0 -90 35t-35 92z" />
<glyph unicode="&#x2022;" horiz-adv-x="1232" d="M362 516q0 104 74 178t178 74t178 -74t74 -178t-73.5 -178t-178.5 -74q-106 0 -179 73t-73 179z" />
<glyph unicode="&#x2026;" horiz-adv-x="1232" d="M78 98q0 51 37 90t90 39t91 -38t38 -91t-37 -90t-92 -37q-53 0 -90 37t-37 90zM485 98q0 51 37 90t90 39t91 -38t38 -91t-36.5 -90t-92.5 -37q-53 0 -90 37t-37 90zM893 98q0 51 37 90t90 39q55 0 93 -38t38 -91t-39 -90t-92 -37t-90 37t-37 90z" />
<glyph unicode="&#x202f;" horiz-adv-x="387" />
<glyph unicode="&#x2039;" horiz-adv-x="1232" d="M274 729l531 512l59 -61l-469 -451l469 -448l-59 -66z" />
<glyph unicode="&#x203a;" horiz-adv-x="1232" d="M365 281l469 448l-469 451l59 61l530 -512l-530 -514z" />
<glyph unicode="&#x205f;" horiz-adv-x="484" />
<glyph unicode="&#x2122;" horiz-adv-x="1232" d="M20 1423v82h469v-82h-192v-497h-82v497h-195zM559 926v579h139l166 -407l174 407h136v-579h-82v497l-203 -497h-53l-191 497l-4 -497h-82z" />
<glyph unicode="&#x25fc;" horiz-adv-x="1085" d="M0 0v1085h1085v-1085h-1085z" />
</font>
</defs>
</svg>
